Информация о фильме
Название: Kiss - Live At Rock Am Ring
Год выхода: 2010
Треклист:
01. Modern Day Delilah
02. Cold Gin
03. Let Me Go Rock 'N' Roll
04. Firehouse
05. Say Yeh
06. Deuce
07. Crazy, Crazy Nights
08. Calling Dr. Love
09. Shocke Me
10. I am An Animale
11. 100,000 Years
12. I Love It Loud
13. Love Gun
14. Black Diamond
15. Detroit Rock City
16. Beth (acoustic with Eric Singer on vocals)
17. Lick It Up
18. Shout It Out Loud
19. I Was Made For Love In You
20. God Gave Rock 'N' Roll To You
21. Rock And Roll All Night
Описание:
Выступление группы KISS на фестивале Rock Am Ring 3 июня 2010 г.
Официальный сайт
Страна: США
Продолжительность: 01:54:05
Перевод: Original
Файл
Кодек: h.264
Качество: HDRip-AVC
Видео: MPEG-4, 1024x576, 25.000 fps ~2364 kbps
Звук: 48 KHz, AC3, 6 ch ~384 Kbps
Media Info:

Скрытый текст

General
Unique ID : 254960510933097756141340186306048377281 (0xBFCF9BB73468B626946096FC450B41C1)
Complete name : E:Video#Муз.видеоKISSKiss - Live At Rock Am Ring (2010).mkv
Format : Matroska
Format version : Version 4 / Version 2
File size : 2.19 GiB
Duration : 1 h 54 min
Overall bit rate : 2 751 kb/s
Movie name : Kiss - Live At Rock Am Ring (2010)
Encoded date : UTC 2016-08-25 18:00:54 / UTC
Writing application : mkvmerge v9.3.1 ('Mask Machine') 64bit
Writing library : libebml v1.3.4 + libmatroska v1.4.5 / Lavf55.12.0
Cover : Yes
Attachments : Cover.jpg
Video
ID : 1
Format : AVC
Format/Info : Advanced Video Codec
Format profile : High@L4.1
Format settings, CABAC : Yes
Format settings, ReFrames : 10 frames
Codec ID : V_MPEG4/ISO/AVC
Duration : 1 h 54 min
Bit rate : 2 364 kb/s
Width : 1 024 pixels
Height : 576 pixels
Display aspect ratio : 16:9
Frame rate mode : Constant
Frame rate : 25.000 FPS
Color space : YUV
Chroma subsampling : 4:2:0
Bit depth : 8 bits
Scan type : Progressive
Bits/(Pixel*Frame) : 0.160
Stream size : 1.84 GiB (84%)
Title : MPEG-4, 1024x576, 25.000 fps ~2364 kbps
Writing library : x264 core 142 r2479 dd79a61
Encoding settings : cabac=1 / ref=10 / deblock=1:-2:-2 / analyse=0x3:0x133 / me=umh / subme=11 / psy=1 / psy_rd=1.00:0.10 / mixed_ref=1 / me_range=32 / chroma_me=1 / trellis=2 / 8x8dct=1 / cqm=0 / deadzone=21,11 / fast_pskip=0 / chroma_qp_offset=-3 / threads=6 / lookahead_threads=1 / sliced_threads=0 / nr=0 / decimate=1 / interlaced=0 / bluray_compat=0 / constrained_intra=0 / bframes=16 / b_pyramid=2 / b_adapt=2 / b_bias=0 / direct=3 / weightb=1 / open_gop=0 / weightp=2 / keyint=250 / keyint_min=25 / scenecut=40 / intra_refresh=0 / rc_lookahead=60 / rc=2pass / mbtree=0 / bitrate=2364 / ratetol=1.0 / qcomp=0.60 / qpmin=0 / qpmax=69 / qpstep=4 / cplxblur=20.0 / qblur=0.5 / vbv_maxrate=62500 / vbv_bufsize=78125 / nal_hrd=none / filler=0 / ip_ratio=1.40 / pb_ratio=1.30 / aq=1:1.00
Language : English
Default : Yes
Forced : No
Color range : Limited
Color primaries : BT.709
Transfer characteristics : BT.709
Matrix coefficients : BT.709
Statistics Tags Issue : mkvmerge v9.3.1 ('Mask Machine') 64bit 2016-08-25 18:00:54 / mkvmerge v9.3.1 ('Mask Machine') 64bit 2016-08-25 18:00:54 / UTC
FromStats_BitRate : 2364738
FromStats_Duration : 01:54:05.320000000
FromStats_FrameCount : 171133
FromStats_StreamSize : 2023424369
Audio
ID : 2
Format : AC-3
Format/Info : Audio Coding 3
Mode extension : CM (complete main)
Format settings, Endianness : Big
Codec ID : A_AC3
Duration : 1 h 54 min
Bit rate mode : Constant
Bit rate : 384 kb/s
Channel(s) : 6 channels
Channel positions : Front: L C R, Side: L R, LFE
Sampling rate : 48.0 kHz
Frame rate : 31.250 FPS (1536 spf)
Compression mode : Lossy
Stream size : 313 MiB (14%)
Title : 48 KHz, AC3, 6 ch ~384 Kbps
Language : English
Default : Yes
Forced : No
Statistics Tags Issue : mkvmerge v9.3.1 ('Mask Machine') 64bit 2016-08-25 18:00:54 / mkvmerge v9.3.1 ('Mask Machine') 64bit 2016-08-25 18:00:54 / UTC
FromStats_BitRate : 384000
FromStats_Duration : 01:54:05.312000000
FromStats_FrameCount : 213916
FromStats_StreamSize : 328574976

To download the file disable ad blocking, and reload the page.

disable adblock How to disable ad blocking?

Download by magnet link 2.19 GB Download Torrent

Login using:

Загрузка...

Similar topics

Kiss - Rock The Nation Live (2005) DVDRip-AVC от DrVampir
 2.84 GB   0 | 0   15-Mar-18 20:30   2


   
Current time is: 16-Dec 07:00 :: All times are UTC + 3