Infected Mushroom / Return to the Sauce
Жанр: Psy Trance, Trance
Носитель: CD
Страна-производитель диска (релиза): Israel
Год издания: 2017
Издатель (лейбл): HOMmega Productions
Номер по каталогу: HMCD94
Страна исполнителя (группы): Israel
Аудиокодек: FLAC (*.flac)
Тип рипа: tracks+.cue
Битрейт аудио: lossless
Продолжительность: 01:10:36
Источник (релизер): NNM
Наличие сканов в содержимом раздачи: нет
Треклист:
01. Flamingo
02. Manipulator
03. Return to the Sauce
04. Groove Attack
05. Xerox - Gravity Waves (Infected Mushroom 2017 Remix)
06. Demons of Pain (Remix)
07. Milosh
08. Nutmeg
09. Liquid Smoke
Лог создания рипа
Exact Audio Copy V1.3 from 2. September 2016
EAC extraction logfile from 10. March 2017, 16:29
Infected Mushroom / Return To The Sauce
Used drive : hp DVD-RAM GH40L Adapter: 1 ID: 0
Read mode : SecureUtilize accurate stream : YesDefeat audio cache : YesMake use of C2 pointers : No
Read offset correction : 667Overread into Lead-In and Lead-Out : NoFill up missing offset samples with silence : YesDelete leading and trailing silent blocks : NoNull samples used in CRC calculations : YesUsed interface : Native Win32 interface for Win NT & 2000Gap handling : Appended to previous track
Used output format : User Defined EncoderSelected bitrate : 1024 kBit/sQuality : HighAdd ID3 tag : NoCommand line compressor : C:\Program Files (x86)\Exact Audio Copy\FLAC\FLAC.EXEAdditional command line options : -8 -e -V -T "ARTIST=%artist%" -T "TITLE=%title%" -T "ALBUM=%albumtitle%" -T "DATE=%year%" -T "TRACKNUMBER=%tracknr%" -T "GENRE=%genre%" -T "PERFORMER=%albuminterpret%" -T "COMPOSER=%composer%" %haslyrics%--tag-from-file=LYRICS="%lyricsfile%"%haslyrics% -T "ALBUMARTIST=%albumartist%" -T "DISCNUMBER=%cdnumber%" -T "TOTALDISCS=%totalcds%" -T "TOTALTRACKS=%numtracks%" -T "COMMENT=%comment%" %source% -o %dest%
TOC of the extracted CD
Track | Start | Length | Start sector | End sector --------------------------------------------------------- 1 | 0:02.00 | 8:36.67 | 150 | 38916 2 | 8:38.67 | 6:28.41 | 38917 | 68057 3 | 15:07.33 | 7:43.59 | 68058 | 102841 4 | 22:51.17 | 6:44.35 | 102842 | 133176 5 | 29:35.52 | 8:33.40 | 133177 | 171691 6 | 38:09.17 | 7:40.07 | 171692 | 206198 7 | 45:49.24 | 10:43.30 | 206199 | 254453 8 | 56:32.54 | 7:31.26 | 254454 | 288304 9 | 64:04.05 | 6:38.21 | 288305 | 318175
Track 1
Filename G:\UnsortedMusic2\EAC Rips\Infected Mushroom - Return To The Sauce (2017) [FLAC] {HMCD94}\01 - Flamingo.wav
Pre-gap length 0:00:04.00
Peak level 98.8 % Extraction speed 1.8 X Track quality 99.9 % Test CRC 42A42F6C Copy CRC 42A42F6C Accurately ripped (confidence 1) [681CC53F] (AR v2) Copy OK
Track 2
Filename G:\UnsortedMusic2\EAC Rips\Infected Mushroom - Return To The Sauce (2017) [FLAC] {HMCD94}\02 - Manipulator.wav
Peak level 100.0 % Extraction speed 2.4 X Track quality 100.0 % Test CRC 0A7ED58E Copy CRC 0A7ED58E Accurately ripped (confidence 1) [6C54AABB] (AR v2) Copy OK
Track 3
Filename G:\UnsortedMusic2\EAC Rips\Infected Mushroom - Return To The Sauce (2017) [FLAC] {HMCD94}\03 - Return To The SAuce.wav
Peak level 100.0 % Extraction speed 2.5 X Track quality 99.9 % Test CRC 82A55CA5 Copy CRC 82A55CA5 Accurately ripped (confidence 1) [3D56666D] (AR v2) Copy OK
Track 4
Filename G:\UnsortedMusic2\EAC Rips\Infected Mushroom - Return To The Sauce (2017) [FLAC] {HMCD94}\04 - Groove Attack.wav
Peak level 98.9 % Extraction speed 2.9 X Track quality 100.0 % Test CRC BDD5C021 Copy CRC BDD5C021 Accurately ripped (confidence 1) [ED163963] (AR v2) Copy OK
Track 5
Filename G:\UnsortedMusic2\EAC Rips\Infected Mushroom - Return To The Sauce (2017) [FLAC] {HMCD94}\05 - Gravity Waves (Infected Mushroom 2017 Remix).wav
Peak level 99.2 % Extraction speed 2.9 X Track quality 99.9 % Test CRC BC7D5563 Copy CRC BC7D5563 Accurately ripped (confidence 1) [16A02A82] (AR v2) Copy OK
Track 6
Filename G:\UnsortedMusic2\EAC Rips\Infected Mushroom - Return To The Sauce (2017) [FLAC] {HMCD94}\06 - Demons Of Pain (Remix).wav
Peak level 100.0 % Extraction speed 3.4 X Track quality 100.0 % Test CRC D8C8AF45 Copy CRC D8C8AF45 Accurately ripped (confidence 1) [638F5F04] (AR v2) Copy OK
Track 7
Filename G:\UnsortedMusic2\EAC Rips\Infected Mushroom - Return To The Sauce (2017) [FLAC] {HMCD94}\07 - Milosh.wav
Peak level 100.0 % Extraction speed 3.5 X Track quality 99.9 % Test CRC AFFF7A87 Copy CRC AFFF7A87 Accurately ripped (confidence 1) [44742F40] (AR v2) Copy OK
Track 8
Filename G:\UnsortedMusic2\EAC Rips\Infected Mushroom - Return To The Sauce (2017) [FLAC] {HMCD94}\08 - Nutmeg.wav
Peak level 98.8 % Extraction speed 3.9 X Track quality 100.0 % Test CRC D585923A Copy CRC D585923A Accurately ripped (confidence 1) [E0B331CC] (AR v2) Copy OK
Track 9
Filename G:\UnsortedMusic2\EAC Rips\Infected Mushroom - Return To The Sauce (2017) [FLAC] {HMCD94}\09 - Liquid Smoke.wav
Peak level 100.0 % Extraction speed 4.0 X Track quality 100.0 % Test CRC 484127C8 Copy CRC 484127C8 Accurately ripped (confidence 1) [99592E71] (AR v2) Copy OK
All tracks accurately ripped
No errors occurred
End of status report
---- CUETools DB Plugin V2.1.6
[CTDB TOCID: xj._NtUPQTEwcvPcSYTwixj3qo0-] foundSubmit result: xj._NtUPQTEwcvPcSYTwixj3qo0- has been confirmedTrack | CTDB Status 1 | (4/4) Accurately ripped 2 | (4/4) Accurately ripped 3 | (4/4) Accurately ripped 4 | (4/4) Accurately ripped 5 | (4/4) Accurately ripped 6 | (4/4) Accurately ripped 7 | (4/4) Accurately ripped 8 | (4/4) Accurately ripped 9 | (4/4) Accurately ripped
==== Log checksum C8783C74EF0ED18BD7A69EDE418522439D9D929D3BE540B681E5DE1290C8C474 ====
Содержание индексной карты (.CUE)
REM GENRE Psy-TranceREM DATE 2017REM DISCID 86109009REM COMMENT "ExactAudioCopy v1.3"PERFORMER "Infected Mushroom"TITLE "Return To The Sauce"REM COMPOSER "Infected Mushroom"FILE "01 - Flamingo.wav" WAVE TRACK 01 AUDIO TITLE "Flamingo" PERFORMER "Infected Mushroom" REM COMPOSER "Infected Mushroom" ISRC USQY51700344 PREGAP 00:02:00 INDEX 01 00:00:00FILE "02 - Manipulator.wav" WAVE TRACK 02 AUDIO TITLE "Manipulator" PERFORMER "Infected Mushroom" REM COMPOSER "Infected Mushroom" ISRC USQY51700345 INDEX 01 00:00:00FILE "03 - Return To The Sauce.wav" WAVE TRACK 03 AUDIO TITLE "Return To The Sauce" PERFORMER "Infected Mushroom" REM COMPOSER "Infected Mushroom" ISRC USQY51700346 INDEX 01 00:00:00FILE "04 - Groove Attack.wav" WAVE TRACK 04 AUDIO TITLE "Groove Attack" PERFORMER "Infected Mushroom" REM COMPOSER "Infected Mushroom" ISRC USQY51700347 INDEX 01 00:00:00FILE "05 - Gravity Waves (Infected Mushroom 2017 Remix).wav" WAVE TRACK 05 AUDIO TITLE "Gravity Waves (Infected Mushroom 2017 Remix)" PERFORMER "Infected Mushroom" REM COMPOSER "Infected Mushroom" ISRC USQY51700348 INDEX 01 00:00:00FILE "06 - Demons Of Pain (Remix).wav" WAVE TRACK 06 AUDIO TITLE "Demons Of Pain (Remix)" PERFORMER "Infected Mushroom" REM COMPOSER "Infected Mushroom" ISRC USQY51700349 INDEX 01 00:00:00FILE "07 - Milosh.wav" WAVE TRACK 07 AUDIO TITLE "Milosh" PERFORMER "Infected Mushroom" REM COMPOSER "Infected Mushroom" ISRC USQY51700350 INDEX 01 00:00:00FILE "08 - Nutmeg.wav" WAVE TRACK 08 AUDIO TITLE "Nutmeg" PERFORMER "Infected Mushroom" REM COMPOSER "Infected Mushroom" ISRC USQY51700351 INDEX 01 00:00:00FILE "09 - Liquid Smoke.wav" WAVE TRACK 09 AUDIO TITLE "Liquid Smoke" PERFORMER "Infected Mushroom" REM COMPOSER "Infected Mushroom" ISRC USQY51700352 INDEX 01 00:00:00
Лог проверки качества
-----------------------
DON'T MODIFY THIS FILE
-----------------------
PERFORMER: auCDtect Task Manager, ver. 1.6.0 RC1 build 1.6.0.1Copyright (c) 2008-2010 y-soft. All rights reservedhttp://y-soft.org
ANALYZER: auCDtect: CD records authenticity detector, version 0.8.2Copyright (c) 2004 Oleg Berngardt. All rights reserved.Copyright (c) 2004 Alexander Djourik. All rights reserved.
FILE: 09 - Liquid Smoke.flac Size: 41769608 Hash: E51C258764C7136554F1F9C8C74F9FC7 Accuracy: -m0 Conclusion: CDDA 100% Signature: A61FFE0523B8CF5873E87EB6523248D1EB35AA95FILE: 08 - Nutmeg.flac Size: 48847517 Hash: 6EDFEB15F7939CE1C823A894F36D999D Accuracy: -m0 Conclusion: MPEG 95% Signature: 63E2723FE1344A03F05F1469C8C2E683E93C9670FILE: 07 - Milosh.flac Size: 72034717 Hash: DA40739C49DA20CF6E8C6350C3B9A7E6 Accuracy: -m0 Conclusion: CDDA 100% Signature: F4361F0158899ECCB49D686E0598C1C287BB7CEFFILE: 06 - Demons Of Pain (Remix).flac Size: 44551552 Hash: 6F73EEF4029173652A054E42CC4643B2 Accuracy: -m0 Conclusion: CDDA 100% Signature: 1B7E1A08BF609FF92612F810AA6BE19F0EC72148FILE: 05 - Gravity Waves (Infected Mushroom 2017 Remix).flac Size: 56648961 Hash: E7AA976D40DC8FB197F0078D178E3C91 Accuracy: -m0 Conclusion: CDDA 100% Signature: 09103E36E48B9A23C599B128FCD518EC76C84EDAFILE: 04 - Groove Attack.flac Size: 40838486 Hash: DC2FB9F8594298FDC83B86483B90BB87 Accuracy: -m0 Conclusion: MPEG 95% Signature: 8846A2A9BDEF296797823B60BFD79545D8825215FILE: 03 - Return To The Sauce.flac Size: 47094025 Hash: 7FC79EEB9A88931CA0C73D5D4AA7F830 Accuracy: -m0 Conclusion: CDDA 100% Signature: 56BCE53F0A16B1A69A227F6489F68480F8B6ABE2FILE: 02 - Manipulator.flac Size: 43308288 Hash: F98D80363CD042F820B830E21996027F Accuracy: -m0 Conclusion: CDDA 100% Signature: 02A6586E76C17704C7D309EF6DDD0DCFD7C0AA02FILE: 01 - Flamingo.flac Size: 57424772 Hash: 6EA0567521B7EA6E05E33991D4681EA7 Accuracy: -m0 Conclusion: CDDA 100% Signature: 91E3972AB925EF8661762AF8D99A435F3287BD8E
Об альбоме (сборнике)
Severe Warning: A rare fungal ear infection originated in 1996 is about to re-infect on January 30
Since they first emerged with their phenomenal premiere album "The Gathering", the trance duo "Infected Mushroom" changed the face of Psychedelic trance music forever.
Their new album, "Return To The Sauce" includes nine new tracks arising powerful scents of the past. Like mushrooms that have grown on their land, so noticeable is the feeling that the duo created the album within their most natural place. The album throws the listener far away to a musical experience
in the style of the early years of the mushroom. Contaminated from beginning to end, the album glorifies the three-dimensional sound signature of the duo, along with multi-layered melodies and riding on an aggressive baseline galloping ahead with full power.
The result is a terrifying and unrestrained experience. As an infection, keeping its original shape yet still evolving and growing stronger, the album is well-imbedded inside its original roots, yet contains a clear and contemporary statement as well as a look far ahead into the future.

To download the file disable ad blocking, and reload the page.

disable adblock How to disable ad blocking?

Download by magnet link 432 MB Download Torrent

Login using:

Загрузка...

Similar topics



   
Current time is: 16-Dec 13:58 :: All times are UTC + 3