Smosh / Connecting Worlds
Жанр: Psy-Trance
Носитель: CD
Страна-производитель диска (релиза): Germany
Год издания: 2009
Издатель (лейбл): AP Records
Номер по каталогу: AP168
Аудиокодек: FLAC (*.flac)
Тип рипа: image+.cue
Битрейт аудио: lossless
Источник (релизер): свой рип
Наличие сканов в содержимом раздачи: нет
Треклист:
01. Smosh - Eyes Never Lie (7:15)
02. Smosh - Working Alpha Waves (7:38)
03. Smosh - Getting Started (7:20)
04. Smosh - Connecting Worlds (6:46)
05. Smosh - Lost Inside (7:45)
06. Smosh - Kinetic (6:44)
07. Smosh - Digital Importers (7:02)
08. Smosh - September (7:52)
Лог создания рипа
Exact Audio Copy V1.3 from 2. September 2016
EAC extraction logfile from 17. March 2017, 19:10
Smosh / Connecting Worlds
Used drive : ATAPI iHAS122 E Adapter: 1 ID: 0
Read mode : SecureUtilize accurate stream : YesDefeat audio cache : YesMake use of C2 pointers : No
Read offset correction : 6Overread into Lead-In and Lead-Out : NoFill up missing offset samples with silence : YesDelete leading and trailing silent blocks : NoNull samples used in CRC calculations : YesUsed interface : Native Win32 interface for Win NT & 2000
Used output format : Internal WAV RoutinesSample format : 44.100 Hz; 16 Bit; Stereo
TOC of the extracted CD
Track | Start | Length | Start sector | End sector --------------------------------------------------------- 1 | 0:00.00 | 7:15.13 | 0 | 32637 2 | 7:15.13 | 7:37.62 | 32638 | 66974 3 | 14:53.00 | 7:20.18 | 66975 | 99992 4 | 22:13.18 | 6:45.64 | 99993 | 130431 5 | 28:59.07 | 7:44.43 | 130432 | 165274 6 | 36:43.50 | 6:44.00 | 165275 | 195574 7 | 43:27.50 | 7:02.37 | 195575 | 227261 8 | 50:30.12 | 7:52.12 | 227262 | 262673
Range status and errors
Selected range
Filename C:\Users\Keith\Music\Smosh - Connecting Worlds.wav
Peak level 98.3 % Extraction speed 6.1 X Range quality 100.0 % Test CRC 68C3ABF9 Copy CRC 68C3ABF9 Copy OK
No errors occurred
AccurateRip summary
Track 1 not present in databaseTrack 2 not present in databaseTrack 3 not present in databaseTrack 4 not present in databaseTrack 5 not present in databaseTrack 6 not present in databaseTrack 7 not present in databaseTrack 8 not present in database
None of the tracks are present in the AccurateRip database
End of status report
---- CUETools DB Plugin V2.1.6
[CTDB TOCID: Nx7vl11vnK.I0Bej1qeu8oL56IQ-] disk not present in databaseSubmit result: Nx7vl11vnK.I0Bej1qeu8oL56IQ- has been uploaded
==== Log checksum 79128B08E4BB862BD99D6D1E87B63FE19D2F5E240EDBF8E7F622A71D5D82F4DC ====
Содержание индексной карты (.CUE)
REM DISCID 610DAE08REM COMMENT "ExactAudioCopy v1.3"PERFORMER "Smosh"TITLE "Connecting Worlds"REM COMPOSER ""FILE "Smosh - Connecting Worlds.flac" WAVE TRACK 01 AUDIO TITLE "Eyes Never Lie" PERFORMER "Smosh" REM COMPOSER "" FLAGS DCP INDEX 01 00:00:00 TRACK 02 AUDIO TITLE "Working Alpha Waves" PERFORMER "Smosh" REM COMPOSER "" FLAGS DCP INDEX 00 07:13:13 INDEX 01 07:15:13 TRACK 03 AUDIO TITLE "Getting Started" PERFORMER "Smosh" REM COMPOSER "" FLAGS DCP INDEX 00 14:51:00 INDEX 01 14:53:00 TRACK 04 AUDIO TITLE "Connecting Worlds" PERFORMER "Smosh" REM COMPOSER "" FLAGS DCP INDEX 00 22:11:18 INDEX 01 22:13:18 TRACK 05 AUDIO TITLE "Lost Inside" PERFORMER "Smosh" REM COMPOSER "" FLAGS DCP INDEX 00 28:57:07 INDEX 01 28:59:07 TRACK 06 AUDIO TITLE "Kinetic" PERFORMER "Smosh" REM COMPOSER "" FLAGS DCP INDEX 00 36:41:50 INDEX 01 36:43:50 TRACK 07 AUDIO TITLE "Digital Importers" PERFORMER "Smosh" REM COMPOSER "" FLAGS DCP INDEX 00 43:25:50 INDEX 01 43:27:50 TRACK 08 AUDIO TITLE "September" PERFORMER "Smosh" REM COMPOSER "" FLAGS DCP INDEX 00 50:28:12 INDEX 01 50:30:12
Лог проверки качества
AUDIOCHECKER v2.0 beta (build 457) - by Dester - opdester@freemail.hu~~~~~~~~~~~~~~~~~~~~~~~~~~~~~~~~~~-=== DO NOT EDIT THIS FILE! ===-
Path: ...\Smosh - Connecting Worlds
1 -=- Smosh - Connecting Worlds.flac -=- CDDA (100%)
92070660

To download the file disable ad blocking, and reload the page.

disable adblock How to disable ad blocking?

Download by magnet link 415 MB Download Torrent

Login using:

Similar topics



   
Current time is: 23-Oct 07:38 :: All times are UTC ± 0