Three Drives - Air Traffic
Жанр: Trance
Носитель: CDM
Страна-производитель диска: Poland
Год издания: 2003
Издатель (лейбл): Hit 'N' Hot Music
Номер по каталогу: H'N'H CDS 168
Аудиокодек: FLAC (*.flac)
Тип рипа: tracks+.cue
Битрейт аудио: lossless
Продолжительность: 00:59:58
Источник (релизер): Собственный рип
Наличие сканов в содержимом раздачи: да
Треклист:
01 Air Traffic (Vocal Radio Version) 3:31
02 Air Traffic (UK Radio Edit) 3:06
03 Air Traffic (Extended Vocal Version) 8:37
04 Air Traffic (Original Version) 10:03
05 Air Traffic (DJ Cor Fijneman Outstanding Remix) 9:22
06 Air Traffic (DJ Erik De Koning Remix) 8:13
07 Air Traffic (DJ Ton R.B. Dark Mix) 8:40
08 Air Traffic (ATC Chill Mix) 8:27
Лог создания рипа
Exact Audio Copy V1.3 from 2. September 2016
Отчёт EAC об извлечении, выполненном 21. марта 2017, 16:44
Three Drives / Air Traffic
Дисковод: PLEXTOR BD-R PX-B950SA Adapter: 1 ID: 0
Режим чтения : ДостоверностьИспользование точного потока : ДаОтключение кэша аудио : ДаИспользование указателей C2 : Нет
Коррекция смещения при чтении : 6Способность читать области Lead-in и Lead-out : НетЗаполнение пропущенных сэмплов тишиной : ДаУдаление блоков с тишиной в начале и конце : НетПри вычислениях CRC использовались нулевые сэмплы : ДаИнтерфейс : Встроенный Win32-интерфейс для Win NT/2000Обработка зазоров : Добавлено к предыдущему треку
Выходной формат : Пользовательский кодировщикВыбранный битрейт : 1024 kBit/sКачество : ВысокийДобавление ID3-тега : НетУтилита сжатия : N:\ПРОГРАММЫ\Exact Audio Copy\FLAC\FLAC.EXEДополнительные параметры : -6 -V -T "ARTIST=%artist%" -T "TITLE=%title%" -T "ALBUM=%albumtitle%" -T "DATE=%year%" -T "TRACKNUMBER=%tracknr%" -T "GENRE=%genre%" -T "COMMENT=%comment%" -T "BAND=%albuminterpret%" -T "ALBUMARTIST=%albuminterpret%" -T "COMPOSER=%composer%" %haslyrics%--tag-from-file=LYRICS="%lyricsfile%"%haslyrics% -T "DISCNUMBER=%cdnumber%" -T "TOTALDISCS=%totalcds%" -T "TOTALTRACKS=%numtracks%" %hascover%--picture="%coverfile%"%hascover% %source% -o %dest%
TOC извлечённого CD
Трек | Старт | Длительность | Начальный сектор | Конечный сектор --------------------------------------------------------------------- 1 | 0:00.00 | 3:31.04 | 0 | 15828 2 | 3:31.04 | 3:05.67 | 15829 | 29770 3 | 6:36.71 | 8:37.25 | 29771 | 68570 4 | 15:14.21 | 10:02.42 | 68571 | 113762 5 | 25:16.63 | 9:21.60 | 113763 | 155897 6 | 34:38.48 | 8:12.49 | 155898 | 192846 7 | 42:51.22 | 8:40.07 | 192847 | 231853 8 | 51:31.29 | 8:27.09 | 231854 | 269887
Трек 1
Имя файла N:\МУЗЫКА\Three Drives - Air Traffic\01 Air Traffic (Vocal Radio Version).wav
Длина предзазора 0:00:02.00
Пиковый уровень 96.6 % Скорость извлечения 2.0 X Качество трека 100.0 % CRC теста 5E6AD7DF CRC копии 5E6AD7DF Трек не обнаружен в базе AccurateRip Копирование... OK
Трек 2
Имя файла N:\МУЗЫКА\Three Drives - Air Traffic\02 Air Traffic (UK Radio Edit).wav
Длина предзазора 0:00:02.00
Пиковый уровень 96.6 % Скорость извлечения 1.5 X Качество трека 99.9 % CRC теста 09283AF0 CRC копии 09283AF0 Трек не обнаружен в базе AccurateRip Копирование... OK
Трек 3
Имя файла N:\МУЗЫКА\Three Drives - Air Traffic\03 Air Traffic (Extended Vocal Version).wav
Длина предзазора 0:00:02.00
Пиковый уровень 96.6 % Скорость извлечения 2.7 X Качество трека 100.0 % CRC теста F8161474 CRC копии F8161474 Трек не обнаружен в базе AccurateRip Копирование... OK
Трек 4
Имя файла N:\МУЗЫКА\Three Drives - Air Traffic\04 Air Traffic (Original Version).wav
Длина предзазора 0:00:02.00
Пиковый уровень 96.6 % Скорость извлечения 2.7 X Качество трека 99.9 % CRC теста 93F81AC9 CRC копии 93F81AC9 Трек не обнаружен в базе AccurateRip Копирование... OK
Трек 5
Имя файла N:\МУЗЫКА\Three Drives - Air Traffic\05 Air Traffic (DJ Cor Fijneman Outstanding Remix).wav
Длина предзазора 0:00:02.00
Пиковый уровень 96.6 % Скорость извлечения 3.5 X Качество трека 100.0 % CRC теста D5FF042C CRC копии D5FF042C Трек не обнаружен в базе AccurateRip Копирование... OK
Трек 6
Имя файла N:\МУЗЫКА\Three Drives - Air Traffic\06 Air Traffic (DJ Erik De Koning Remix).wav
Длина предзазора 0:00:02.00
Пиковый уровень 96.6 % Скорость извлечения 3.2 X Качество трека 99.9 % CRC теста 69EF1ADD CRC копии 69EF1ADD Трек не обнаружен в базе AccurateRip Копирование... OK
Трек 7
Имя файла N:\МУЗЫКА\Three Drives - Air Traffic\07 Air Traffic (DJ Ton R.B. Dark Mix).wav
Длина предзазора 0:00:02.00
Пиковый уровень 96.6 % Скорость извлечения 4.0 X Качество трека 100.0 % CRC теста E8FD9D1B CRC копии E8FD9D1B Трек не обнаружен в базе AccurateRip Копирование... OK
Трек 8
Имя файла N:\МУЗЫКА\Three Drives - Air Traffic\08 Air Traffic (ATC Chill Mix).wav
Длина предзазора 0:00:02.00
Пиковый уровень 96.6 % Скорость извлечения 4.3 X Качество трека 100.0 % CRC теста 473A9B7D CRC копии 473A9B7D Трек не обнаружен в базе AccurateRip Копирование... OK
Ни одного трека нет в базе AccurateRip
Ошибок не произошло
Конец отчёта
---- CUETools DB Plugin V2.1.6
[CTDB TOCID: OjOBbrHQ8zBIHB67KWgBP_BD08U-] disk not present in databaseSubmit result: OjOBbrHQ8zBIHB67KWgBP_BD08U- has been uploaded
==== Контрольная сумма отчёта 34B7D1ED14C8DE8F6E40C83AA48F624AA44C2968AE8632F4E4D2CF104D70946F ====
Содержание индексной карты (.CUE)
REM GENRE TranceREM DATE 2003REM DISCID 650E0E08REM COMMENT "ExactAudioCopy v1.3"PERFORMER "Three Drives"TITLE "Air Traffic"REM COMPOSER ""FILE "01 Air Traffic (Vocal Radio Version).wav" WAVE TRACK 01 AUDIO TITLE "Air Traffic (Vocal Radio Version)" PERFORMER "Three Drives" REM COMPOSER "" INDEX 01 00:00:00 TRACK 02 AUDIO TITLE "Air Traffic (UK Radio Edit)" PERFORMER "Three Drives" REM COMPOSER "" INDEX 00 03:29:04FILE "02 Air Traffic (UK Radio Edit).wav" WAVE INDEX 01 00:00:00 TRACK 03 AUDIO TITLE "Air Traffic (Extended Vocal Version)" PERFORMER "Three Drives" REM COMPOSER "" INDEX 00 03:03:67FILE "03 Air Traffic (Extended Vocal Version).wav" WAVE INDEX 01 00:00:00 TRACK 04 AUDIO TITLE "Air Traffic (Original Version)" PERFORMER "Three Drives" REM COMPOSER "" INDEX 00 08:35:25FILE "04 Air Traffic (Original Version).wav" WAVE INDEX 01 00:00:00 TRACK 05 AUDIO TITLE "Air Traffic (DJ Cor Fijneman Outstanding Remix)" PERFORMER "Three Drives" REM COMPOSER "" INDEX 00 10:00:42FILE "05 Air Traffic (DJ Cor Fijneman Outstanding Remix).wav" WAVE INDEX 01 00:00:00 TRACK 06 AUDIO TITLE "Air Traffic (DJ Erik De Koning Remix)" PERFORMER "Three Drives" REM COMPOSER "" INDEX 00 09:19:60FILE "06 Air Traffic (DJ Erik De Koning Remix).wav" WAVE INDEX 01 00:00:00 TRACK 07 AUDIO TITLE "Air Traffic (DJ Ton R.B. Dark Mix)" PERFORMER "Three Drives" REM COMPOSER "" INDEX 00 08:10:49FILE "07 Air Traffic (DJ Ton R.B. Dark Mix).wav" WAVE INDEX 01 00:00:00 TRACK 08 AUDIO TITLE "Air Traffic (ATC Chill Mix)" PERFORMER "Three Drives" REM COMPOSER "" INDEX 00 08:38:07FILE "08 Air Traffic (ATC Chill Mix).wav" WAVE INDEX 01 00:00:00

To download the file disable ad blocking, and reload the page.

disable adblock How to disable ad blocking?

Download by magnet link 425 MB Download Torrent

Login using:

Загрузка...

Similar topics



   
Current time is: 16-Dec 06:05 :: All times are UTC + 3