Информация о фильме
Название: Захват поезда Пелэм 1-2-3
Оригинальное название: The Taking of Pelham One Two Three
Год выхода: 1974
Жанр: боевик, триллер, криминал
Режиссер: Джозеф Сарджент
В ролях: Уолтер Мэттау, Роберт Шоу, Мартин Болсам, Гектор Элизондо, Эрл Хиндмэн, Джеймс Бродерик, Дик О’Нил, Ли Уоллес, Беатрис Уинд, Джерри Стиллер, Натан Джордж, Руди Бонд, Кеннет МакМиллан, Дорис Робертс, Джулиус Харрис
О фильме:
Нью-Йорк. Четверо вооружённых людей захватывают вагон метро под улицами Манхэттэна и берут всех пассажиров в заложники. Они требуют миллион долларов. Власти принимают решение удовлетворить требование террористов, они считают, что у злоумышленников нет шансов улизнуть из подземки с такими деньгами. Но у четвёрки хитрый план…

Страна: США
Студия: Palomar Pictures (I), Palladium Productions
Продолжительность: 01:44:22
Перевод: Профессиональный многоголосый, профессиональный двухголосый, авторский
Файл
Кодек: x264
Качество: BDRip-AVC (Zahvat.poezda.Pelem.1.2.3.1974..BDRemux.1080p.Rus.Eng)
Видео: MPEG-4 AVC, 2791 Кбит/с, 1024x432, 23.976 кадр/с
Аудио #1: АС3, 2 ch, 192 Кбит/с | Профессиональный многоголосый (ОРТ)
Аудио #2: АС3, 2 ch, 192 Кбит/с | Профессиональный двухголосый (НТВ+)
Аудио #3: АС3, 2 ch, 192 Кбит/с | Aвторский (С.Визгунов)
Аудио #4: АС3, 2 ch, 192 Кбит/с | Aвторский (П.Карцев)
Аудио #5: АС3, 2 ch, 192 Кбит/с | Английский
Субтитры: Английские

MediaInfo

Общее
Уникальный идентификатор : 228311553650779859792186071410011093348 (0xABC334AE2A7986BFA808C5DE43D13964)
Полное имя : The.Taking.of.Pelham.One.Two.Three.1974.BDRip-AVC.mkv
Формат : Matroska
Версия формата : Version 4 / Version 2
Размер файла : 2,74 Гбайт
Продолжительность : 1 ч. 44 м.
Общий поток : 3752 Кбит/сек
Название фильма : The Taking of Pelham One Two Three by Koenig
Дата кодирования : UTC 2017-02-22 05:12:40
Программа кодирования : mkvmerge v9.2.0 ('Photograph') 32bit
Библиотека кодирования : libebml v1.3.3 + libmatroska v1.4.4
Обложка : Yes
Attachments : cover.jpg
Видео
Идентификатор : 1
Формат : AVC
Формат/Информация : Advanced Video Codec
Профиль формата : High@L4.1
Параметр CABAC формата : Да
Параметр ReFrames формата : 11 кадров
Идентификатор кодека : V_MPEG4/ISO/AVC
Продолжительность : 1 ч. 44 м.
Битрейт : 2791 Кбит/сек
Ширина : 1024 пикселя
Высота : 432 пикселя
Соотношение сторон : 2,40:1
Режим частоты кадров : Постоянный
Частота кадров : 23,976 (24000/1001) кадра/сек
Цветовое пространство : YUV
Субдискретизация насыщенности : 4:2:0
Битовая глубина : 8 бит
Тип развёртки : Прогрессивная
Бит/(Пиксели*Кадры) : 0.263
Размер потока : 2,03 Гбайт (74%)
Заголовок : The Taking of Pelham One Two Three
Библиотека кодирования : x264 core 148 r2692 64f4e24
Настройки программы : cabac=1 / ref=11 / deblock=1:-3:-3 / analyse=0x3:0x133 / me=umh / subme=10 / psy=1 / psy_rd=1.00:0.05 / mixed_ref=1 / me_range=32 / chroma_me=1 / trellis=2 / 8x8dct=1 / cqm=0 / deadzone=21,11 / fast_pskip=1 / chroma_qp_offset=-3 / threads=3 / lookahead_threads=1 / sliced_threads=0 / nr=0 / decimate=1 / interlaced=0 / bluray_compat=0 / constrained_intra=0 / bframes=12 / b_pyramid=2 / b_adapt=2 / b_bias=0 / direct=3 / weightb=1 / open_gop=0 / weightp=2 / keyint=240 / keyint_min=23 / scenecut=40 / intra_refresh=0 / rc_lookahead=50 / rc=2pass / mbtree=1 / bitrate=2791 / ratetol=1.0 / qcomp=0.60 / qpmin=0 / qpmax=51 / qpstep=4 / cplxblur=20.0 / qblur=0.5 / vbv_maxrate=50000 / vbv_bufsize=62500 / nal_hrd=none / filler=0 / ip_ratio=1.40 / aq=1:1.00
Язык : English
Default : Да
Forced : Нет
Аудио #1
Идентификатор : 2
Формат : AC-3
Формат/Информация : Audio Coding 3
Расширение режима : CM (complete main)
Параметр Endianness формата : Big
Идентификатор кодека : A_AC3
Продолжительность : 1 ч. 44 м.
Вид битрейта : Постоянный
Битрейт : 192 Кбит/сек
Каналы : 2 канала
Расположение каналов : Front: L R
Частота : 44,1 КГц
Частота кадров : 28,711 кадров/сек (1536 spf)
Битовая глубина : 16 бит
Метод сжатия : С потерями
Размер потока : 143 Мбайт (5%)
Заголовок : MVO - ОРТ
Язык : Russian
Default : Да
Forced : Нет
Аудио #2
Идентификатор : 3
Формат : AC-3
Формат/Информация : Audio Coding 3
Расширение режима : CM (complete main)
Параметр Endianness формата : Big
Идентификатор кодека : A_AC3
Продолжительность : 1 ч. 43 м.
Вид битрейта : Постоянный
Битрейт : 192 Кбит/сек
Каналы : 2 канала
Расположение каналов : Front: L R
Частота : 48,0 КГц
Частота кадров : 31,250 кадров/сек (1536 spf)
Битовая глубина : 16 бит
Метод сжатия : С потерями
Размер потока : 143 Мбайт (5%)
Заголовок : DVO - НТВ+
Язык : Russian
Default : Нет
Forced : Нет
Аудио #3
Идентификатор : 4
Формат : AC-3
Формат/Информация : Audio Coding 3
Расширение режима : CM (complete main)
Параметр Endianness формата : Big
Идентификатор кодека : A_AC3
Продолжительность : 1 ч. 44 м.
Вид битрейта : Постоянный
Битрейт : 192 Кбит/сек
Каналы : 2 канала
Расположение каналов : Front: L R
Частота : 48,0 КГц
Частота кадров : 31,250 кадров/сек (1536 spf)
Битовая глубина : 16 бит
Метод сжатия : С потерями
Размер потока : 143 Мбайт (5%)
Заголовок : AVO - С.Визгунов
Язык : Russian
Default : Нет
Forced : Нет
Аудио #4
Идентификатор : 5
Формат : AC-3
Формат/Информация : Audio Coding 3
Расширение режима : CM (complete main)
Параметр Endianness формата : Big
Идентификатор кодека : A_AC3
Продолжительность : 1 ч. 44 м.
Вид битрейта : Постоянный
Битрейт : 192 Кбит/сек
Каналы : 2 канала
Расположение каналов : Front: L R
Частота : 48,0 КГц
Частота кадров : 31,250 кадров/сек (1536 spf)
Битовая глубина : 16 бит
Метод сжатия : С потерями
Размер потока : 143 Мбайт (5%)
Заголовок : AVO - П.Карцев
Язык : Russian
Default : Нет
Forced : Нет
Аудио #5
Идентификатор : 6
Формат : AC-3
Формат/Информация : Audio Coding 3
Расширение режима : CM (complete main)
Параметр Endianness формата : Big
Идентификатор кодека : A_AC3
Продолжительность : 1 ч. 44 м.
Вид битрейта : Постоянный
Битрейт : 192 Кбит/сек
Каналы : 2 канала
Расположение каналов : Front: L R
Частота : 48,0 КГц
Частота кадров : 31,250 кадров/сек (1536 spf)
Битовая глубина : 16 бит
Метод сжатия : С потерями
Размер потока : 143 Мбайт (5%)
Язык : English
Default : Нет
Forced : Нет
Текст
Идентификатор : 7
Формат : UTF-8
Идентификатор кодека : S_TEXT/UTF8
Идентификатор кодека/Информация : UTF-8 Plain Text
Продолжительность : 1 ч. 38 м.
Битрейт : 81 бит/сек
Count of elements : 1418
Размер потока : 58,5 Кбайт (0%)
Язык : English
Default : Да
Forced : Нет
Меню
00:00:00.000 : en:00:00:00.000
00:05:56.273 : en:00:05:56.273
00:09:35.784 : en:00:09:35.784
00:11:54.213 : en:00:11:54.213
00:13:45.450 : en:00:13:45.450
00:16:49.842 : en:00:16:49.842
00:20:51.792 : en:00:20:51.792
00:24:33.055 : en:00:24:33.055
00:28:12.316 : en:00:28:12.316
00:29:28.350 : en:00:29:28.350
00:34:32.612 : en:00:34:32.612
00:40:03.151 : en:00:40:03.151
00:41:21.813 : en:00:41:21.813
00:46:16.983 : en:00:46:16.983
00:49:34.638 : en:00:49:34.638
00:52:31.940 : en:00:52:31.940
00:55:43.590 : en:00:55:43.590
00:58:57.743 : en:00:58:57.743
00:59:48.335 : en:00:59:48.335
01:01:11.293 : en:01:01:11.293
01:02:24.282 : en:01:02:24.282
01:05:44.774 : en:01:05:44.774
01:10:40.027 : en:01:10:40.027
01:13:50.843 : en:01:13:50.843
01:19:46.615 : en:01:19:46.615
01:21:12.826 : en:01:21:12.826
01:23:17.242 : en:01:23:17.242
01:27:09.724 : en:01:27:09.724
01:30:56.743 : en:01:30:56.743
01:33:01.451 : en:01:33:01.451
01:37:18.833 : en:01:37:18.833
01:41:28.082 : en:01:41:28.082

Скриншоты

To download the file disable ad blocking, and reload the page.

disable adblock How to disable ad blocking?

Download by magnet link 2.74 GB Download Torrent

Login using:

Similar topics

Палачи / Gli esecutori (1976) DVDRip
 1.36 GB   0 | 0   17-Jun-16 18:07   7
Хозяева ночи / We Own the Night (2007) BDRip-AVC
 3.2 GB   1 | 0   17-Jun-16 18:10   3
Подражатель / The Wannabe (2015) BDRip 720p
 4.48 GB   0 | 0   31-May-16 17:04   2
Степные волки [01-21 из 24] (2016) HDTVRip
 11.28 GB   0 | 0   03-Jun-16 19:43   2


   
Current time is: 16-Oct 08:52 :: All times are UTC ± 0