-[url=https://********/qqss44] [/url]
Анонсы 1080p от qqss44
--✘ По соображениям совести ✘-- Информация о фильме
✦ Год выхода: 2016
✦ Название: По соображениям совести
✦ Жанр: Драма, военный, история
✦ Оригинальное название: Hacksaw Ridge
✦ Режиссер: Мэл Гибсон
✦ В ролях: Эндрю Гарфилд, Ричард Пирос, Джейкоб Уорнер, Мило Гибсон, Дарси Брайс, Роман Геррьеро, Джеймс Лагтон, Касия Стелмах, Хьюго Уивинг, Рэйчел Гриффитс

Описание фильма
Медик американской армии времён Второй Мировой войны Дезмонд Досс, служивший во время битвы за Окинаву, отказывается убивать людей и становится первым идейным уклонистом в американской истории, удостоенным Медали Почёта.

✦ Выпущено: Австралия, США
✦ Продолжительность: 02:19:19
✦ Перевод: дублированный -
|| iTunes ||

Информация о файле
✦ Формат:| MKV | x264 |
✦ Качество: BDRip 1080p
✦ Видео: X264/MPEG4-AVC | 1920x804 (2.40:1) | ~7350 kbps | 23,976 fps
✦ Аудио Rus: AC3 | 48 KHz | 5.1 (Front: L С R Side: L R) + LFE | ~384 kbps
✦ Субтитры: || русские (форсированные) ||

[color=#a96600]✘ MediaInfo ✘[/color]

x264 [info]: frame I:1633 Avg QP:14.08 size:201173
x264 [info]: frame P:54315 Avg QP:17.16 size: 69924
x264 [info]: frame B:144477 Avg QP:18.68 size: 24448
Общее
Уникальный идентификатор : 207858779061109649013094446194243023952 (0x9C602509BB851F4595BEE106AAF23450)
Полное имя : X:ATorrentHacksaw.Ridge.2016.BDRip.1080p.(qqss44).mkv
Формат : Matroska
Версия формата : Version 2
Размер файла : 7,51 Гбайт
Продолжительность : 2 ч. 19 м.
Общий поток : 7715 Кбит/сек
Название фильма : Hacksaw.Ridge.2016.BDRip.1080p.(qqss44)
Дата кодирования : UTC 2017-02-23 20:06:33
Программа кодирования : mkvmerge v5.8.0 ('No Sleep / Pillow') built on Sep 2 2012 15:37:04
Библиотека кодирования : libebml v1.2.3 + libmatroska v1.3.0
Видео
Идентификатор : 1
Формат : AVC
Формат/Информация : Advanced Video Codec
Профиль формата : High@L4.1
Параметр CABAC формата : Да
Параметр ReFrames формата : 5 кадров
Идентификатор кодека : V_MPEG4/ISO/AVC
Продолжительность : 2 ч. 19 м.
Битрейт : 7338 Кбит/сек
Ширина : 1920 пикселей
Высота : 804 пикселя
Соотношение сторон : 2,40:1
Режим частоты кадров : Постоянный
Частота кадров : 23,976 (24000/1001) кадра/сек
Цветовое пространство : YUV
Субдискретизация насыщенности : 4:2:0
Битовая глубина : 8 бит
Тип развёртки : Прогрессивная
Бит/(Пиксели*Кадры) : 0.198
Размер потока : 6,98 Гбайт (93%)
Заголовок : Hacksaw.Ridge.2016.BDRip.1080p.(qqss44)
Библиотека кодирования : x264 core 148 r2744kMod b97ae06
Настройки программы : cabac=1 / ref=5 / deblock=1:-3:-3 / analyse=0x3:0x133 / me=umh / subme=11 / psy=1 / fade_compensate=0.00 / psy_rd=1.00:0.00 / mixed_ref=1 / me_range=32 / chroma_me=1 / trellis=2 / 8x8dct=1 / cqm=0 / deadzone=21,11 / fast_pskip=0 / chroma_qp_offset=-2 / threads=12 / lookahead_threads=3 / sliced_threads=0 / nr=0 / decimate=0 / interlaced=0 / bluray_compat=0 / constrained_intra=0 / bframes=10 / b_pyramid=2 / b_adapt=2 / b_bias=0 / direct=3 / weightb=1 / open_gop=0 / weightp=2 / keyint=240 / keyint_min=23 / scenecut=40 / intra_refresh=0 / rc=2pass / mbtree=0 / bitrate=7338 / ratetol=1.0 / qcomp=0.60 / qpmin=0 / qpmax=69 / qpstep=4 / cplxblur=20.0 / qblur=0.5 / ip_ratio=1.40 / pb_ratio=1.30 / aq=3:0.70
Язык : English
Default : Да
Forced : Нет
Аудио
Идентификатор : 2
Формат : AC-3
Формат/Информация : Audio Coding 3
Расширение режима : CM (complete main)
Параметр Endianness формата : Big
Идентификатор кодека : A_AC3
Продолжительность : 2 ч. 19 м.
Вид битрейта : Постоянный
Битрейт : 384 Кбит/сек
Каналы : 6 каналов
Расположение каналов : Front: L C R, Side: L R, LFE
Частота : 48,0 КГц
Частота кадров : 31,250 кадров/сек (1536 spf)
Метод сжатия : С потерями
Размер потока : 383 Мбайт (5%)
Заголовок : DUB | DD5.1 @ 384 kbps
Язык : Russian
Default : Да
Forced : Нет
Текст
Идентификатор : 3
Формат : UTF-8
Идентификатор кодека : S_TEXT/UTF8
Идентификатор кодека/Информация : UTF-8 Plain Text
Заголовок : FORCED
Язык : Russian
Default : Да
Forced : Нет
Меню
00:00:00.000 : en:Chapter 01
00:09:18.766 : en:Chapter 02
00:18:41.995 : en:Chapter 03
00:26:34.509 : en:Chapter 04
00:33:00.561 : en:Chapter 05
00:40:04.151 : en:Chapter 06
00:50:07.212 : en:Chapter 07
00:57:01.543 : en:Chapter 08
01:04:21.649 : en:Chapter 09
01:17:50.207 : en:Chapter 10
01:23:58.700 : en:Chapter 11
01:31:21.726 : en:Chapter 12
01:39:02.811 : en:Chapter 13
01:46:07.569 : en:Chapter 14
01:59:48.306 : en:Chapter 15
02:07:13.292 : en:Chapter 16

[color=#a96600]✘ Скриншоты ✘[/color]

Релиз от:
[url=********/index.php][img]********/images/logo88x31.png[/img][/url] [url=********/viewtopic.php?t=17323][img]********/images/rg_nto.gif[/img][/url]

To download the file disable ad blocking, and reload the page.

disable adblock How to disable ad blocking?

Download by magnet link 7.51 GB Download Torrent

Login using:

Similar topics



   
Current time is: 16-Oct 08:25 :: All times are UTC ± 0