Информация о фильме
Название: Город воров
Оригинальное название: The Town
Год выхода: 2010
Жанр: Триллер, драма, криминал
Режиссер: Бен Аффлек
В ролях: Бен Аффлек, Ребекка Холл, Джон Хэмм, Джереми Реннер, Блейк Лайвли, Слэйн, Оуэн Бурк, Титус Уэлливер, Пит Постлетуэйт, Крис Купер
О фильме:
В Бостоне каждый год происходит более 300 ограблений банков. И большинство профессионалов, специализирующихся в этой области, живут в округе под названием Чарльстон общей площадью одна квадратная миля. Даг МакРэй - один из них. В отличие от большинства у Дага был шанс на успех, шанс на то, чтобы не идти по криминальному пути своего отца. Однако вместо этого он стал фактическим лидером группы безжалостных грабителей банков, которые гордятся тем, что берут все, что хотят, и выходят сухими из воды.

Официальный сайт
Выпущено: США / Warner Bros. Pictures, Legendary Pictures, GK Films
Продолжительность: 02:30:34
Перевод: Дублированный, профессиональный двухголосый, авторский
Файл
Формат: MKV
Качество: BDRip 1080p
Видео: MPEG-4 AVC, 10000 Кбит/с, 1920x800
Аудио: Русский (AC3, 6 ch, 384 Кбит/с), (AC3, 6 ch, 448 Кбит/с), (AC3, 6 ch, 640 Кбит/с), английский (DTS, 6 ch, 1509 Кбит/с), (AAC, 2 ch)
Субтитры: Русские, английские
Семпл

MI

Общее
Уникальный идентификатор : 184945773535787488287461731634207297505 (0x8B2342A5407A3AC5B672409EAB988FE1)
Полное имя : E:Раздача-BDRipGorod_Vorov.2010.BDRip 1080p_grab777.mkv
Формат : Matroska
Версия формата : Version 2
Размер файла : 16,4 Гбайт
Продолжительность : 2 ч. 30 м.
Общий поток : 15,6 Мбит/сек
Название фильма : The Town. 2010. BDRip 1080p. [Extended cut]_grab777
Дата кодирования : UTC 2017-01-03 01:08:12
Программа кодирования : mkvmerge v5.8.0 ('No Sleep / Pillow') built on Sep 2 2012 15:37:04
Библиотека кодирования : libebml v1.2.3 + libmatroska v1.3.0
Attachment : Yes
Видео
Идентификатор : 1
Формат : AVC
Формат/Информация : Advanced Video Codec
Профиль формата : High@L4.1
Параметр CABAC формата : Да
Параметр ReFrames формата : 5 кадров
Идентификатор кодека : V_MPEG4/ISO/AVC
Продолжительность : 2 ч. 30 м.
Номинальный битрейт : 10000 Кбит/сек
Ширина : 1920 пикселей
Высота : 800 пикселей
Соотношение сторон : 2,40:1
Режим частоты кадров : Постоянный
Частота кадров : 23,976 кадра/сек
Цветовое пространство : YUV
Субдискретизация насыщенности : 4:2:0
Битовая глубина : 8 бит
Тип развёртки : Прогрессивная
Бит/(Пиксели*Кадры) : 0.272
Заголовок : Video_EbP
Библиотека кодирования : x264 core 110 r1820+9_DANGEROUS a645884
Настройки программы : cabac=1 / ref=5 / deblock=1:-3:-3 / analyse=0x3:0x113 / me=tesa / subme=10 / psy=1 / fade_compensate=0.00 / psy_rd=1.00:0.00 / mixed_ref=1 / me_range=16 / chroma_me=1 / trellis=2 / 8x8dct=1 / cqm=0 / deadzone=21,11 / fast_pskip=0 / chroma_qp_offset=-2 / threads=12 / sliced_threads=0 / nr=0 / decimate=0 / interlaced=0 / constrained_intra=0 / fgo=0 / bframes=8 / b_pyramid=2 / b_adapt=2 / b_bias=0 / direct=3 / weightb=1 / open_gop=0 / weightp=2 / keyint=250 / keyint_min=23 / scenecut=40 / intra_refresh=0 / rc_lookahead=40 / rc=2pass / mbtree=1 / bitrate=10000 / ratetol=1.0 / qcomp=0.80 / qpmin=0 / qpmax=51 / qpstep=4 / cplxblur=20.0 / qblur=0.5 / ip_ratio=1.40 / aq=1 / aq-strength=0.80 / aq-sensitivity=10.00 / aq-ifactor=1.00 / aq-pfactor=1.00 / aq-bfactor=1.00 / aq2=0
Язык : English
Default : Да
Forced : Нет
Аудио #1
Идентификатор : 2
Формат : AC-3
Формат/Информация : Audio Coding 3
Расширение режима : CM (complete main)
Параметр Endianness формата : Big
Идентификатор кодека : A_AC3
Продолжительность : 2 ч. 30 м.
Вид битрейта : Постоянный
Битрейт : 384 Кбит/сек
Каналы : 6 каналов
Расположение каналов : Front: L C R, Side: L R, LFE
Частота : 48,0 КГц
Битовая глубина : 16 бит
Метод сжатия : С потерями
Размер потока : 414 Мбайт (2%)
Заголовок : Dub (R5)
Язык : Russian
Default : Да
Forced : Нет
Аудио #2
Идентификатор : 3
Формат : AC-3
Формат/Информация : Audio Coding 3
Расширение режима : CM (complete main)
Параметр Endianness формата : Big
Идентификатор кодека : A_AC3
Продолжительность : 2 ч. 30 м.
Вид битрейта : Постоянный
Битрейт : 640 Кбит/сек
Каналы : 6 каналов
Расположение каналов : Front: L C R, Side: L R, LFE
Частота : 48,0 КГц
Битовая глубина : 16 бит
Метод сжатия : С потерями
Размер потока : 689 Мбайт (4%)
Заголовок : DVO (Кубик в кубе) [Censored]
Язык : Russian
Default : Нет
Forced : Нет
Аудио #3
Идентификатор : 4
Формат : AC-3
Формат/Информация : Audio Coding 3
Расширение режима : CM (complete main)
Параметр Endianness формата : Big
Идентификатор кодека : A_AC3
Продолжительность : 2 ч. 30 м.
Вид битрейта : Постоянный
Битрейт : 640 Кбит/сек
Каналы : 6 каналов
Расположение каналов : Front: L C R, Side: L R, LFE
Частота : 48,0 КГц
Битовая глубина : 16 бит
Метод сжатия : С потерями
Размер потока : 689 Мбайт (4%)
Заголовок : DVO (Кубик в кубе) [Uncensored]
Язык : Russian
Default : Нет
Forced : Нет
Аудио #4
Идентификатор : 5
Формат : AC-3
Формат/Информация : Audio Coding 3
Расширение режима : CM (complete main)
Параметр Endianness формата : Big
Идентификатор кодека : A_AC3
Продолжительность : 2 ч. 30 м.
Вид битрейта : Постоянный
Битрейт : 640 Кбит/сек
Каналы : 6 каналов
Расположение каналов : Front: L C R, Side: L R, LFE
Частота : 48,0 КГц
Битовая глубина : 16 бит
Метод сжатия : С потерями
Размер потока : 689 Мбайт (4%)
Заголовок : AVO (Ю. Сербин)
Язык : Russian
Default : Нет
Forced : Нет
Аудио #5
Идентификатор : 6
Формат : AC-3
Формат/Информация : Audio Coding 3
Расширение режима : CM (complete main)
Параметр Endianness формата : Big
Идентификатор кодека : A_AC3
Продолжительность : 2 ч. 30 м.
Вид битрейта : Постоянный
Битрейт : 640 Кбит/сек
Каналы : 6 каналов
Расположение каналов : Front: L C R, Side: L R, LFE
Частота : 48,0 КГц
Битовая глубина : 16 бит
Метод сжатия : С потерями
Размер потока : 689 Мбайт (4%)
Заголовок : AVO (А. Гаврилов)
Язык : Russian
Default : Нет
Forced : Нет
Аудио #6
Идентификатор : 7
Формат : AC-3
Формат/Информация : Audio Coding 3
Расширение режима : CM (complete main)
Параметр Endianness формата : Big
Идентификатор кодека : A_AC3
Продолжительность : 2 ч. 30 м.
Вид битрейта : Постоянный
Битрейт : 448 Кбит/сек
Каналы : 6 каналов
Расположение каналов : Front: L C R, Side: L R, LFE
Частота : 48,0 КГц
Битовая глубина : 16 бит
Метод сжатия : С потерями
Размер потока : 482 Мбайт (3%)
Заголовок : AVO (В. Горчаков)
Язык : Russian
Default : Нет
Forced : Нет
Аудио #7
Идентификатор : 8
Формат : AC-3
Формат/Информация : Audio Coding 3
Расширение режима : CM (complete main)
Параметр Endianness формата : Big
Идентификатор кодека : A_AC3
Продолжительность : 2 ч. 30 м.
Вид битрейта : Постоянный
Битрейт : 640 Кбит/сек
Каналы : 6 каналов
Расположение каналов : Front: L C R, Side: L R, LFE
Частота : 48,0 КГц
Битовая глубина : 16 бит
Метод сжатия : С потерями
Размер потока : 689 Мбайт (4%)
Заголовок : VO (М. Чадов)
Язык : Russian
Default : Нет
Forced : Нет
Аудио #8
Идентификатор : 9
Формат : DTS
Формат/Информация : Digital Theater Systems
Режим : 16
Параметр Endianness формата : Big
Идентификатор кодека : A_DTS
Продолжительность : 2 ч. 30 м.
Вид битрейта : Постоянный
Битрейт : 1509 Кбит/сек
Каналы : 6 каналов
Расположение каналов : Front: L C R, Side: L R, LFE
Частота : 48,0 КГц
Битовая глубина : 24 бит
Метод сжатия : С потерями
Размер потока : 1,59 Гбайт (10%)
Заголовок : Original
Язык : English
Default : Нет
Forced : Нет
Аудио #9
Идентификатор : 10
Формат : AAC
Формат/Информация : Advanced Audio Codec
Профиль формата : HE-AAC / LC
Идентификатор кодека : A_AAC
Продолжительность : 2 ч. 30 м.
Каналы : 2 канала
Расположение каналов : Front: L R
Частота : 48,0 КГц / 24,0 КГц
Метод сжатия : С потерями
Заголовок : Commentary
Язык : English
Default : Нет
Forced : Нет
Текст #1
Идентификатор : 11
Формат : UTF-8
Идентификатор кодека : S_TEXT/UTF8
Идентификатор кодека/Информация : UTF-8 Plain Text
Заголовок : full
Язык : Russian
Default : Да
Forced : Да
Текст #2
Идентификатор : 12
Формат : UTF-8
Идентификатор кодека : S_TEXT/UTF8
Идентификатор кодека/Информация : UTF-8 Plain Text
Заголовок : full.SDH
Язык : Russian
Default : Нет
Forced : Нет
Текст #3
Идентификатор : 13
Формат : UTF-8
Идентификатор кодека : S_TEXT/UTF8
Идентификатор кодека/Информация : UTF-8 Plain Text
Заголовок : forced
Язык : Russian
Default : Нет
Forced : Нет
Текст #4
Идентификатор : 14
Формат : UTF-8
Идентификатор кодека : S_TEXT/UTF8
Идентификатор кодека/Информация : UTF-8 Plain Text
Заголовок : Goblin
Язык : Russian
Default : Нет
Forced : Нет
Текст #5
Идентификатор : 15
Формат : UTF-8
Идентификатор кодека : S_TEXT/UTF8
Идентификатор кодека/Информация : UTF-8 Plain Text
Язык : English
Default : Нет
Forced : Нет
Текст #6
Идентификатор : 16
Формат : UTF-8
Идентификатор кодека : S_TEXT/UTF8
Идентификатор кодека/Информация : UTF-8 Plain Text
Заголовок : SDH
Язык : English
Default : Нет
Forced : Нет
Меню
00:00:00.000 : en:00:00:00.000
00:10:53.111 : en:00:10:53.111
00:23:54.433 : en:00:23:54.433
00:44:12.066 : en:00:44:12.066
00:54:36.690 : en:00:54:36.690
01:06:36.367 : en:01:06:36.367
01:14:39.266 : en:01:14:39.266
01:27:29.161 : en:01:27:29.161
01:36:55.393 : en:01:36:55.393
01:53:14.246 : en:01:53:14.246
02:03:03.793 : en:02:03:03.793
02:14:10.751 : en:02:14:10.751
02:23:16.379 : en:02:23:16.379

О релизе

Аудио: Русский (AC3, 6 ch, 384 Кбит/с) Дублированный
Аудио: Русский (AC3, 6 ch, 448 Кбит/с) Горчаков
Аудио: Русский (AC3, 6 ch, 640 Кбит/с) (М. Чадов), (А. Гаврилов) , (Ю. Сербин) 2 х (Кубик в кубе) нецензурная и цензурная версия
Аудио: Английский (DTS, 6 ch, 1509 Кбит/с) Original
Аудио: Английский (AAC, 2 ch) Commentary

Интересно

• Фильм снят по мотивам романа Чака Хогана «Принц воров» (Prince of Thieves, 2004).
• Полная версия фильма имеет продолжительность 150 минут.
• Поставлялся в кинотеатры под кодовым названием «Сriminal intent» («Преступный умысел»).
• Чтобы вжиться в образ, Джереми Реннер общался с осуждёнными за ограбления преступниками родом из Чарльстауна. От них он, в частности, перенял специфический акцент.
• Свой режиссёрский дебют — драму «Прощай, детка, прощай» — Бен Аффлек также снимал в Бостоне.
• Все полицейские машины, показанные в фильме, относятся к вымышленному отделу A-8.

Награды

Оскар, 2011 год
Номинации (1):
Лучшая мужская роль второго плана (Джереми Реннер)
Золотой глобус, 2011 год
Номинации (1):
Лучшая мужская роль второго плана (Джереми Реннер)
Британская академия, 2011 год
Номинации (1):
Лучшая мужская роль второго плана (Пит Постлетуэйт)
Жорж, 2011 год
Номинации (1):
Лучший фильм в переводе Гоблина
Премия Гильдии актеров, 2011 год
Номинации (1):
Лучшая мужская роль второго плана (Джереми Реннер)

Скриншоты

Релиз от:

To download the file disable ad blocking, and reload the page.

disable adblock How to disable ad blocking?

Download by magnet link 16.41 GB Download Torrent

Login using:

Similar topics

Город воров / The Town (2010) BDRip 720p | Extended Cut | D, P2, A
 9.04 GB   0 | 1   30-May-17 15:00   0


   
Current time is: 16-Oct 08:10 :: All times are UTC ± 0