Изгой-один: Звёздные войны. Истории / Rogue One«Мятеж с надеждой в сердце»- Страна: США, Великобритания
Жанр: фантастика, боевик, приключения
Год выпуска: 2016
Продолжительность: 02:13:57
Перевод: Профессиональный (дублированный) (iTunes)
Оригинальная аудиодорожка: английский
Субтитры: русские (форс., полные) английские (полные, SDH)
Навигация по главам: есть
Режиссер: Гарет Эдвардс / Gareth Edwards
В ролях: Фелисити Джонс (Jyn Erso), Диего Луна (Cassian Andor), Алан Тьюдик (K-2SO), Донни Йен (Chirrut Îmwe), Цзян Вэнь (Baze Malbus), Бен Мендельсон (Orson Krennic), Гай Генри (Governor Tarkin), Форест Уитакер (Saw Gerrera), Риз Ахмед (Bodhi Rook), Мадс Миккельсен (Galen Erso), Джимми Смитс (Bail Organa), Алистэр Петри (General Draven)
Описание: Сопротивление собирает отряд для выполнения особой миссии - надо выкрасть чертежи самого совершенного и смертоносного оружия Империи. Возглавляет бойцов неуправляемая и бесстрашная Джин Эрсо, у которой в этом самоубийственном задании есть и личные мотивы. Не всем суждено вернуться домой, но герои готовы к этому, ведь на кону судьба Галактики.- -Качество: BDRip-AVC (исходник - BDRemux|Rogue.One.2016.1080p.BluRay.REMUX.AVC.DTS-MA.7.1-FGT)
Формат видео: MKV
Видео: x264, 984x412 (2.40:1) 23,976 fps, ~1681 kbps, 0.173 bit/pixel
Аудио 1: 48 kHz, AC3 Dolby Digital, 5.1 (Front: L C R, Side: L R, LFE) ch, ~384 kbps, [русский]
Аудио 2: 48 kHz, AC3 Dolby Digital, 2.0 (Front: L R) ch, ~192 kbps, [английский]
Формат субтитров: softsub (SRT)-MediaInfo | x264 log
Format : Matroska
Format version : Version 4 / Version 2
File size : 2.16 GiB
Duration : 2h 13 min
Overall bit rate : 2 303 kb/s
Movie name : Изгой-один: Звёздные войны. Истории / Rogue One (2016) :: AFM ::
Encoded date : UTC 2017-03-23 22:34:12
Writing application : mkvmerge v8.3.0 ('Over the Horizon') 32bit
Writing library : libebml v1.3.1 + libmatroska v1.4.2
Video
ID : 1
Format : AVC
Format/Info : Advanced Video Codec
Format profile : High@L4.1
Format settings, CABAC : Yes
Format settings, ReFrames : 11 frames
Codec ID : V_MPEG4/ISO/AVC
Duration : 2h 13 min
Bit rate : 1 681 kb/s
Width : 984 pixels
Height : 412 pixels
Display aspect ratio : 2.40:1
Frame rate mode : Constant
Frame rate : 23.976 (24000/1001) FPS
Color space : YUV
Chroma subsampling : 4:2:0
Bit depth : 8 bits
Scan type : Progressive
Bits/(Pixel*Frame) : 0.173
Stream size : 1.57 GiB (73%)
Title : BDRip by AFM
Writing library : x264 core 150 r2773+45 df9a66c 7mod [8-bit@all X86_64]
Encoding settings : cabac=1 / ref=11 / deblock=1:-2:-1 / analyse=0x3:0x113 / me=umh / subme=10 / psy=1 / fade_compensate=0.00 / psy_rd=1.00:0.00 / mixed_ref=1 / me_range=32 / chroma_me=0 / trellis=2 / 8x8dct=1 / cqm=0 / deadzone=21,11 / fast_pskip=0 / chroma_qp_offset=-2 / threads=6 / lookahead_threads=1 / sliced_threads=0 / nr=0 / decimate=1 / interlaced=0 / bluray_compat=0 / constrained_intra=0 / fgo=0 / bframes=15 / b_pyramid=2 / b_adapt=2 / b_bias=0 / direct=1 / weightb=1 / open_gop=0 / weightp=2 / keyint=240 / keyint_min=23 / scenecut=40 / intra_refresh=0 / rc_lookahead=60 / rc=crf / mbtree=0 / crf=18.6000 / qcomp=0.65 / qpmin=0:0:0 / qpmax=69:69:69 / qpstep=4 / vbv_maxrate=50000 / vbv_bufsize=62500 / crf_max=0.0 / nal_hrd=none / filler=0 / ip_ratio=1.30 / pb_ratio=1.23 / aq=3:0.95 / aq-sensitivity=10.00 / aq-factor=1.00:1.00:1.00 / aq2=0 / aq3=0 / zones=180841,192701,q=30
Language : English
Default : Yes
Forced : No
Audio #1
ID : 2
Format : AC-3
Format/Info : Audio Coding 3
Mode extension : CM (complete main)
Format settings, Endianness : Big
Codec ID : A_AC3
Duration : 2h 13 min
Bit rate mode : Constant
Bit rate : 384 kb/s
Channel(s) : 6 channels
Channel positions : Front: L C R, Side: L R, LFE
Sampling rate : 48.0 kHz
Frame rate : 31.250 FPS (1536 spf)
Compression mode : Lossy
Stream size : 368 MiB (17%)
Title : Dub, AC3 5.1 ~384 kbps
Language : Russian
Default : Yes
Forced : No
Audio #2
ID : 3
Format : AC-3
Format/Info : Audio Coding 3
Mode extension : CM (complete main)
Format settings, Endianness : Big
Codec ID : A_AC3
Duration : 2h 13 min
Bit rate mode : Constant
Bit rate : 192 kb/s
Channel(s) : 2 channels
Channel positions : Front: L R
Sampling rate : 48.0 kHz
Frame rate : 31.250 FPS (1536 spf)
Compression mode : Lossy
Stream size : 184 MiB (8%)
Title : Original, AC3 2.0 ~192 kbps
Language : English
Default : No
Forced : No
Text #1
ID : 4
Format : UTF-8
Codec ID : S_TEXT/UTF8
Codec ID/Info : UTF-8 Plain Text
Title : forced
Language : Russian
Default : Yes
Forced : No
Text #2
ID : 5
Format : UTF-8
Codec ID : S_TEXT/UTF8
Codec ID/Info : UTF-8 Plain Text
Language : Russian
Default : No
Forced : No
Text #3
ID : 6
Format : UTF-8
Codec ID : S_TEXT/UTF8
Codec ID/Info : UTF-8 Plain Text
Language : English
Default : No
Forced : No
Text #4
ID : 7
Format : UTF-8
Codec ID : S_TEXT/UTF8
Codec ID/Info : UTF-8 Plain Text
Title : SDH
Language : English
Default : No
Forced : No
Menu
00:00:00.000 : en:"He's Come For Us"
00:02:34.654 : en:Unfinished Business
00:07:46.466 : en:Jyn in Prison
00:08:42.813 : en:Ring of Kafrene
00:11:04.622 : en:An Urgent Message
00:12:21.198 : en:Wobani Prison Break
00:13:41.153 : en:Rebel Interrogation
00:17:19.913 : en:Mission Departure
00:20:09.541 : en:Saw Gerrera
00:21:54.771 : en:Krennic and Tarkin
00:23:47.092 : en:Jyn's Dream
00:24:31.386 : en:Scouting Jedha City
00:26:53.445 : en:Bor Gullet
00:27:46.623 : en:Guardians of The Whills
00:30:37.293 : en:Holy City Ambush
00:33:53.406 : en:"Let them Pass"
00:37:11.270 : en:Saw's Catacombs
00:42:30.089 : en:Galen's Message
00:47:16.124 : en:Jedha Escape
00:51:04.144 : en:Tarkin Commands
00:52:23.723 : en:Race to Eadu
00:55:53.266 : en:Eadu Crash
00:59:48.251 : en:Scouting Eadu
01:02:07.807 : en:Krennic and Galen
01:05:25.504 : en:Attack on Eadu
01:10:24.094 : en:Eadu Aftermath
01:12:49.531 : en:Mustafar
01:16:28.458 : en:Jyn Before the Council
01:19:04.322 : en:"May the Force Be With Us"
01:21:55.160 : en:Rogue One Launches
01:23:25.667 : en:Scarif Gate
01:25:58.987 : en:10 Men Like 100
01:27:34.958 : en:Imperial Inspection
01:29:57.308 : en:Ground Forces
01:31:53.841 : en:The Battle Begins
01:34:18.736 : en:Scrambling the Rebel Fleet
01:36:07.511 : en:Sowing Confusion
01:37:48.237 : en:Rebel Reinforcements
01:40:27.604 : en:Beach Battle
01:42:44.074 : en:Master Switch
01:45:26.778 : en:Stardust
01:47:55.010 : en:Data Vault
01:50:31.416 : en:Sacrifices
01:53:28.885 : en:"We Have the Plans"
01:55:46.272 : en:Final Confrontation
01:59:23.447 : en:Transmission Received
02:01:11.347 : en:Fire When Ready
02:03:15.596 : en:Hope
02:05:42.117 : en:End Credits
x264
x264 [info]: frame I:1658 Avg QP:15.83 size: 43849
x264 [info]: frame P:39004 Avg QP:18.00 size: 18733
x264 [info]: frame B:152039 Avg QP:19.82 size: 6115
x264 [info]: consecutive B-frames: 2.2% 2.1% 6.0% 16.7% 17.6% 36.0% 7.7% 1.4% 2.3% 1.9% 1.7% 0.6% 1.7% 1.8% 0.4% 0.1%
x264 [info]: mb I I16..4: 5.2% 80.1% 14.7%
x264 [info]: mb P I16..4: 0.9% 13.6% 2.2% P16..4: 34.3% 30.1% 13.8% 0.0% 0.0% skip: 5.1%
x264 [info]: mb B I16..4: 0.0% 0.8% 0.2% B16..8: 42.3% 16.1% 3.7% direct: 5.1% skip:31.9% L0:45.3% L1:46.3% BI: 8.3%
x264 [info]: 8x8 transform intra:80.1% inter:61.9%
x264 [info]: coded y,uvDC,uvAC intra: 92.3% 69.3% 38.3% inter: 23.5% 14.2% 1.1%
x264 [info]: i16 v,h,dc,p: 12% 14% 7% 67%
x264 [info]: i8 v,h,dc,ddl,ddr,vr,hd,vl,hu: 8% 10% 6% 10% 14% 14% 14% 12% 13%
x264 [info]: i4 v,h,dc,ddl,ddr,vr,hd,vl,hu: 8% 8% 3% 10% 16% 15% 15% 12% 14%
x264 [info]: i8c dc,h,v,p: 40% 29% 18% 13%
x264 [info]: Weighted P-Frames: Y:97.2% UV:4.2%
x264 [info]: ref P L0: 47.4% 10.0% 16.9% 6.5% 5.5% 3.7% 3.4% 1.7% 1.7% 1.4% 1.5% 0.2% 0.0%
x264 [info]: ref B L0: 71.3% 12.1% 6.4% 3.2% 2.3% 1.8% 1.4% 0.8% 0.5% 0.2%
x264 [info]: ref B L1: 93.7% 6.3%
x264 [info]: kb/s:1724.99
Скриншоты
с названием Торрент перезалит - замена на BDRip + звук iTunes + субтитры

To download the file disable ad blocking, and reload the page.

disable adblock How to disable ad blocking?

Download by magnet link 2.16 GB Download Torrent

Login using:

Загрузка...

Similar topics



   
Current time is: 13-Dec 07:20 :: All times are UTC + 3